Скачать через торрент Одни в бою Alone We Fight Фильм бесплатно в хорошем качестве torrent

Скачивайте на UnionPeer.org фильмы через торрент без регистрации. Новинки кино в хорошем качестве через торрент. На UnionPeer.org можно скачать через торрент фильмы 2014 и 2015 годов. Самые новые фильмы.

Скачать торрент Одни в бою Alone We Fight бесплатно через .torrent фильм мультфильм сериал

Статистика раздачи
Размер:  1.28 GB   |    Зарегистрирован:  26 дней   |    .torrent скачан:  86 раз   |   
Раздают:  1  
   
загрузка...
 
Автор Сообщение

Galfimbul

avatar Galfimbul


Одни в бою /Alone We Fight

Год выхода: 2018
Жанр: Военный
Режиссер: Джастин Ли
В ролях: Корбин Бернсен, Джонни Месснер, Эйдан Бристоу, Питер «Драго» Тиманн, Филип Натаниэль, Лара Томас Дьюси, Кейт Конвей, Адам Эллиотт Дэвис, Мэтью, Джеймс Маккарти, Эндрю Гарреттон
О фильме:
В суровых обстоятельствах небольшая, но весьма решительная группа американских солдат отправляется на полную опасностей территорию врага с миссией остановить приближающийся немецкий отряд от прорыва линии обороны союзников.



Страна: США, Wandering Dragon Productions
Продолжительность: 01:32:09
Перевод: Любительский (двухголосый закадровый) | HiWay Grope

Файл
Кодек: XviD
Качество: WEBRip
Видео: 720x352, 23.976 fps, ~1789 kbps, 0.29 bit/pixel
Звук:
Аудио rus: AC3, 48 kHz, 2 ch, 192 Kbps
Субтитры: отсутствуют

Реклама: присутствует

Семпл
General
Complete name : D:Alone.We.Fight..2018.WEBRip.HiWayGropeAlone.We.Fight..2018.WEBRip.HiWayGrope.avi
Format : AVI
Format/Info : Audio Video Interleave
Format profile : OpenDML
File size : 1.28 GiB
Duration : 1 h 32 min
Overall bit rate : 1 988 kb/s
Writing application : Lavf57.71.100

Video
ID : 0
Format : MPEG-4 Visual
Format profile : Advanced Simple@L5
Format settings : BVOP1
Format settings, BVOP : 1
Format settings, QPel : No
Format settings, GMC : No warppoints
Format settings, Matrix : Default (H.263)
Codec ID : XVID
Codec ID/Hint : XviD
Duration : 1 h 32 min
Bit rate : 1 784 kb/s
Width : 720 pixels
Height : 352 pixels
Display aspect ratio : 2.006
Frame rate : 23.976 (24000/1001) FPS
Color space : YUV
Chroma subsampling : 4:2:0
Bit depth : 8 bits
Scan type : Progressive
Compression mode : Lossy
Bits/(Pixel*Frame) : 0.294
Stream size : 1.15 GiB (90%)
Writing library : XviD 67

Audio
ID : 1
Format : AC-3
Format/Info : Audio Coding 3
Codec ID : 2000
Duration : 1 h 32 min
Bit rate mode : Constant
Bit rate : 192 kb/s
Channel(s) : 2 channels
Channel positions : Front: L R
Sampling rate : 48.0 kHz
Frame rate : 31.250 FPS (1536 SPF)
Bit depth : 16 bits
Compression mode : Lossy
Stream size : 127 MiB (10%)
Alignment : Aligned on interleaves
Interleave, duration : 32 ms (0.77 video frame)
Service kind : Complete Main
Релиз от: HiWay Grope
Источник http://BlaTor.org

Трекер:  [ 14-Ноя-2018 22:00 ]

  

Скачать .torrent

Размер .torrent файла 13 KB


Размер: 1.28 GB
Хэш (hash) релиза: a27d056cc181539ea5bf81866628b910c7925996
Подписка на обновления:

Торренты, похожие на Одни в бою Alone We Fight скачать торрент

Форум Название Автор Размер S L Добавлен
Зарубежные фильмы 2016-2018 (Новинки зарубежного кино) ·%· Одни в бою / Alone We Fight (2018) WEBRip 720p | L2 Galfimbul 21967462142.05 GB 0 0 1542206465

17:41

14-Ноя-18

Еще никто не оставлял запись к записи скачать торрент Одни в бою Alone We Fight . Будь первым!

!Обратная связь