Скачать через торрент Ограбление века Ограбление в Хаттон Гарден Фильм бесплатно в хорошем качестве torrent

Скачивайте на UnionPeer.org фильмы через торрент без регистрации. Новинки кино в хорошем качестве через торрент. На UnionPeer.org можно скачать через торрент фильмы 2014 и 2015 годов. Самые новые фильмы.

Скачать торрент Ограбление века Ограбление в Хаттон Гарден бесплатно через .torrent фильм мультфильм сериал

Статистика раздачи
Размер:  745 MB   |    Зарегистрирован:  26 дней   |    .torrent скачан:  162 раза   |   
Раздают:  1  
   
загрузка...
 
Автор Сообщение

Galfimbul

avatar Galfimbul


Название: Ограбление века / Ограбление в Хаттон Гарден
Оригинальное название: The Hatton Garden Job
Год выхода: 2017
Жанр: Боевик, триллер, криминал
Режиссер: Ронни Томпсон
В ролях: Пол Мэттью Гуд, Джоэли Ричардсон, Стивен Мойер, Клайв Расселл, Уоррен Браун, Дэвид Колдер, Ларри Ламб, Фил Дэниелс, Джек Дулан, Джон Элфорд

О фильме :
Реальная история о самом масштабном ограблении в Великобритании. Налётчикам удалось вынести из надёжно защищённого банковского хранилища наличные и ценности на сумму в 200 миллионов фунтов. Воспользовавшись своим богатым жизненным опытом, преступники придумали отличный план, в котором рассчитали каждый шаг буквально по минутам. Это дерзкое ограбление наделало много шуму и сделало всех его участников «знаменитостями».



Страна: Великобритания
Студия: Fiction Films
Продолжительность: 01:32:43
Перевод: Профессиональный (полное дублирование) | iTunes

Файл
Формат: MKV
Качество: BDRip-AVC (BDRemux 1080p)
Видео: MPEG-4 AVC, 784x424, - 1048 Кбит/с
Аудио: AAC-HE, 2 ch, - 76 Кбит/с
Субтитры: Нет
Общее
Уникальный идентификатор : 188154652507228226581893009386403138677 (0x8D8D4497F96F1BDF8F32AA5984DA0C75)
Полное имя : D:MOVIESThe.Hatton.Garden.Job.2017.ExKinoRay.mkv
Формат : Matroska
Версия формата : Version 4 / Version 2
Размер файла : 745 Мбайт
Продолжительность : 1 ч. 32 м.
Общий поток : 1124 Кбит/сек
Дата кодирования : UTC 2018-11-14 04:28:01
Программа кодирования : mkvmerge v15.0.0 ('Duel with the Devil') 64-bit
Библиотека кодирования : libebml v1.3.5 + libmatroska v1.4.5

Видео
Идентификатор : 1
Формат : AVC
Формат/Информация : Advanced Video Codec
Профиль формата : High@L4.1
Параметр CABAC формата : Да
Параметр RefFrames формата : 12 кадров
Идентификатор кодека : V_MPEG4/ISO/AVC
Продолжительность : 1 ч. 32 м.
Битрейт : 1048 Кбит/сек
Ширина : 784 пикселя
Высота : 424 пикселя
Соотношение сторон : 1,85:1
Режим частоты кадров : Постоянный
Частота кадров : 23,976 (24000/1001) кадра/сек
Цветовое пространство : YUV
Субдискретизация насыщенности : 4:2:0
Битовая глубина : 8 бит
Тип развёртки : Прогрессивная
Бит/(Пиксели*Кадры) : 0.131
Размер потока : 694 Мбайт (93%)
Библиотека кодирования : x264 core 152 r2851kMod ba24899
Настройки программы : cabac=1 / ref=12 / deblock=1:-2:-2 / analyse=0x3:0x133 / me=umh / subme=10 / psy=1 / fade_compensate=0.00 / psy_rd=1.00:0.13 / mixed_ref=1 / me_range=32 / chroma_me=1 / trellis=2 / 8x8dct=1 / cqm=0 / deadzone=21,11 / fast_pskip=0 / chroma_qp_offset=-3 / threads=6 / lookahead_threads=1 / sliced_threads=0 / nr=0 / decimate=0 / interlaced=0 / bluray_compat=0 / constrained_intra=0 / bframes=11 / b_pyramid=2 / b_adapt=2 / b_bias=0 / direct=3 / weightb=1 / open_gop=0 / weightp=2 / keyint=240 / keyint_min=23 / scenecut=40 / intra_refresh=0 / rc_lookahead=40 / rc=2pass / mbtree=1 / bitrate=1048 / ratetol=1.0 / qcomp=0.60 / qpmin=0 / qpmax=69 / qpstep=4 / cplxblur=20.0 / qblur=0.5 / ip_ratio=1.40 / aq=3:1.00
Default : Да
Forced : Нет

Аудио
Идентификатор : 2
Формат : AAC
Формат/Информация : Advanced Audio Codec
Профиль формата : HE-AAC / LC
Идентификатор кодека : A_AAC
Продолжительность : 1 ч. 32 м.
Битрейт : 76,0 Кбит/сек
Каналы : 2 канала
Расположение каналов : Front: L R
Частота : 48,0 КГц / 24,0 КГц
Частота кадров : 23,438 кадра/сек (1024 SPF)
Метод сжатия : С потерями
Задержка видео : 31 мс.
Размер потока : 50,4 Мбайт (7%)
Язык : Russian
Default : Да
Forced : Нет

Меню
00:00:00.000 : en:00:00:00.000
00:10:21.162 : en:00:10:21.162
00:30:39.254 : en:00:30:39.254
00:49:35.723 : en:00:49:35.723
01:11:59.398 : en:01:11:59.398
01:30:03.148 : en:01:30:03.148
Источник http://BlaTor.org

Трекер:  [ 14-Ноя-2018 15:40 ]

  

Скачать .torrent

Размер .torrent файла 15 KB


Размер: 745 MB
Хэш (hash) релиза: 9913de71a9bd7c1e5d0d7514556dd96c67061f61
Подписка на обновления:

Торренты, похожие на Ограбление века Ограбление в Хаттон Гарден скачать торрент

Форум Название Автор Размер S L Добавлен
Зарубежные фильмы 2016-2018 (Новинки зарубежного кино) ·%· Ограбление века / Ограбление в Хаттон Гарден / The Hatton Garden Job (2017) BDRip от MegaPeer | iTunes Galfimbul 15236648961.42 GB 0 0 1542248511

05:21

15-Ноя-18

Зарубежные фильмы 2016-2018 (Новинки зарубежного кино) ·%· Ограбление века / Ограбление в Хаттон Гарден / The Hatton Garden Job (2017) BDRip 1080p от селезень | iTunes Galfimbul 97447486319.08 GB 0 0 1542202898

16:41

14-Ноя-18

Зарубежные фильмы 2016-2018 (Новинки зарубежного кино) ·%· Ограбление века / Ограбление в Хаттон Гарден / The Hatton Garden Job (2017) BDRip | iTunes Galfimbul 782431768746 MB 0 0 1542173492

08:31

14-Ноя-18

Зарубежные фильмы 2016-2018 (Новинки зарубежного кино) ·%· Ограбление века / Ограбление в Хаттон Гарден / The Hatton Garden Job (2017) BDRip 720p от селезень | iTunes Galfimbul 35511457703.31 GB 0 0 1542157219

04:00

14-Ноя-18

Зарубежные фильмы 2016-2018 (Новинки зарубежного кино) ·%· Ограбление века / Ограбление в Хаттон Гарден / The Hatton Garden Job (2017) BDRip 1080p | iTunes Galfimbul 85345614897.95 GB 0 0 1542133250

21:20

13-Ноя-18

Зарубежные фильмы 2016-2018 (Новинки зарубежного кино) ·%· Ограбление века / Ограбление в Хаттон Гарден / The Hatton Garden Job (2017) BDRip-AVC от OlLanDGroup | iTunes Galfimbul 21770260812.03 GB 0 0 1542106823

14:00

13-Ноя-18

Еще никто не оставлял запись к записи скачать торрент Ограбление века Ограбление в Хаттон Гарден . Будь первым!

!Обратная связь