Скачать через торрент 22 мили Mile 22 Фильм бесплатно в хорошем качестве torrent

Скачивайте на UnionPeer.org фильмы через торрент без регистрации. Новинки кино в хорошем качестве через торрент. На UnionPeer.org можно скачать через торрент фильмы 2014 и 2015 годов. Самые новые фильмы.

Скачать торрент 22 мили Mile 22 бесплатно через .torrent фильм мультфильм сериал

Статистика раздачи
Размер:  22.64 GB   |    Зарегистрирован:  26 дней   |    .torrent скачан:  62 раза   |   
Раздают:  1  
   
загрузка...
 
Автор Сообщение

Galfimbul

avatar Galfimbul


22 мили /Mile 22

Год выхода: 2018
Жанр: Боевик, триллер
Режиссер: Питер Берг
В ролях: Марк Уолберг, Лорен Коэн, Ико Уайс, Джон Малкович, Ронда Раузи, Карло Альбан, Сиэль, Сэм Медина, Кит А. Болден



О фильме: Призраки — элитный отряд сверхсекретной разведки: официально они не существуют, но на самом деле — реальны. Они решают задачи, когда старые методы уже не работают, и всегда добиваются поставленной цели. Суперагенту отряда при поддержке ЦРУ предстоит непростая миссия: тайно вывести из Индонезии полицейского, владеющего доказательствами коррупции в высших политических кругах. До спасительного самолета им предстоит преодолеть 22 смертельно опасные мили.

Страна: США
Студия: Closest to the Hole Productions
Продолжительность: 01:34:40
Перевод: Дублированный | iTunes

Качество: BDRemux 1080p
Видео: MPEG-4 AVC, 1920x1080, 29.6 Mbit/s, 23.976 fps
Звук:
Аудио #01: 48 kHz, AC3, 5.1, 384 Kbps | iTunes | RUS |
Аудио #02: 48 kHz, TrueHD, 5.1, 3524 Kbps | Оригинал | ENG |
Аудио #03: 48 kHz, AC3, 5.1, 640 Kbps | Оригинал | ENG |
Субтитры: Английские

General
Unique ID : 219788023761185621597291075049937997742 (0xA559A2361884EC8F6FECAF7461DC8FAE)
Complete name : D:Video111Mile.22.2018.BDREMUX.1080p.selezen.mkv
Format : Matroska
Format version : Version 4
File size : 22.6 GiB
Duration : 1 h 34 min
Overall bit rate mode : Variable
Overall bit rate : 34.2 Mb/s
Movie name : Mile 22 2018 from селезень
Encoded date : UTC 2018-11-14 09:16:32
Writing application : mkvmerge v28.2.0 ('The Awakening') 64-bit
Writing library : libebml v1.3.6 + libmatroska v1.4.9

Video
ID : 1
Format : AVC
Format/Info : Advanced Video Codec
Format profile : High@L4.1
Format settings : CABAC / 4 Ref Frames
Format settings, CABAC : Yes
Format settings, ReFrames : 4 frames
Codec ID : V_MPEG4/ISO/AVC
Duration : 1 h 34 min
Bit rate mode : Variable
Bit rate : 29.6 Mb/s
Maximum bit rate : 35.0 Mb/s
Width : 1 920 pixels
Height : 1 080 pixels
Display aspect ratio : 16:9
Frame rate mode : Constant
Frame rate : 23.976 (24000/1001) FPS
Standard : NTSC
Color space : YUV
Chroma subsampling : 4:2:0
Bit depth : 8 bits
Scan type : Progressive
Bits/(Pixel*Frame) : 0.596
Stream size : 19.6 GiB (87%)
Language : English
Default : Yes
Forced : No
Color range : Limited
Color primaries : BT.709
Transfer characteristics : BT.709
Matrix coefficients : BT.709

Audio #1
ID : 2
Format : AC-3
Format/Info : Audio Coding 3
Commercial name : Dolby Digital
Codec ID : A_AC3
Duration : 1 h 34 min
Bit rate mode : Constant
Bit rate : 384 kb/s
Channel(s) : 6 channels
Channel layout : L R C LFE Ls Rs
Sampling rate : 48.0 kHz
Frame rate : 31.250 FPS (1536 SPF)
Bit depth : 16 bits
Compression mode : Lossy
Stream size : 260 MiB (1%)
Title : iTunes
Language : Russian
Service kind : Complete Main
Default : Yes
Forced : Yes

Audio #2
ID : 3
Format : MLP FBA
Format/Info : Meridian Lossless Packing FBA
Commercial name : Dolby TrueHD
Codec ID : A_TRUEHD
Duration : 1 h 34 min
Bit rate mode : Variable
Bit rate : 3 524 kb/s
Maximum bit rate : 5 142 kb/s
Channel(s) : 6 channels
Channel layout : L R C LFE Ls Rs
Sampling rate : 48.0 kHz
Frame rate : 1 200.000 FPS (40 SPF)
Compression mode : Lossless
Stream size : 2.33 GiB (10%)
Title : Original
Language : English
Default : No
Forced : No

Audio #3
ID : 4
Format : AC-3
Format/Info : Audio Coding 3
Commercial name : Dolby Digital
Codec ID : A_AC3
Duration : 1 h 34 min
Bit rate mode : Constant
Bit rate : 640 kb/s
Channel(s) : 6 channels
Channel layout : L R C LFE Ls Rs
Sampling rate : 48.0 kHz
Frame rate : 31.250 FPS (1536 SPF)
Bit depth : 16 bits
Compression mode : Lossy
Stream size : 433 MiB (2%)
Language : English
Service kind : Complete Main
Default : No
Forced : No

Text #1
ID : 5
Format : UTF-8
Codec ID : S_TEXT/UTF8
Codec ID/Info : UTF-8 Plain Text
Duration : 1 h 25 min
Bit rate : 69 b/s
Count of elements : 1403
Stream size : 43.3 KiB (0%)
Title : Full
Language : English
Default : No
Forced : No

Text #2
ID : 6
Format : UTF-8
Codec ID : S_TEXT/UTF8
Codec ID/Info : UTF-8 Plain Text
Duration : 1 h 26 min
Bit rate : 77 b/s
Count of elements : 1584
Stream size : 49.6 KiB (0%)
Title : SDH
Language : English
Default : No
Forced : No

Menu
00:00:00.000 : en:Chapter 1
00:12:06.225 : en:Chapter 2
00:24:27.925 : en:Chapter 3
00:36:23.139 : en:Chapter 4
00:48:42.211 : en:Chapter 5
01:04:11.264 : en:Chapter 6
01:17:49.665 : en:Chapter 7
01:27:14.604 : en:Chapter 8
Источник http://BlaTor.org

Трекер:  [ 14-Ноя-2018 14:20 ]

  

Скачать .torrent

Размер .torrent файла 113 KB


Размер: 22.64 GB
Хэш (hash) релиза: f214b605c240180691e2d5b7fc8489c8a91ca454
Подписка на обновления:

Торренты, похожие на 22 мили Mile 22 скачать торрент

Форум Название Автор Размер S L Добавлен
Зарубежные фильмы 2016-2018 (Новинки зарубежного кино) ·%· 22 мили / Mile 22 (2018) BDRip 1080p от qqss44 & MegaPeer | iTunes Galfimbul 70119743806.53 GB 0 0 1542658254

23:10

19-Ноя-18

Зарубежные фильмы 2016-2018 (Новинки зарубежного кино) ·%· 22 мили / Mile 22 (2018) BDRip-AVC от OlLanDGroup | iTunes Galfimbul 781022190745 MB 0 0 1542337853

06:10

16-Ноя-18

Зарубежные фильмы 2016-2018 (Новинки зарубежного кино) ·%· 22 мили / Mile 22 (2018) BDRip от ExKinoRay | iTunes Galfimbul 15229769441.42 GB 0 0 1542244218

04:10

15-Ноя-18

Зарубежные фильмы 2016-2018 (Новинки зарубежного кино) ·%· 22 мили / Mile 22 (2018) BDRip-AVC от HELLYWOOD | iTunes Galfimbul 22875873162.13 GB 0 0 1542223875

22:31

14-Ноя-18

Зарубежные фильмы 2016-2018 (Новинки зарубежного кино) ·%· 22 мили / Mile 22 (2018) BDRip 720p от селезень | iTunes Galfimbul 49471827344.61 GB 0 0 1542210664

18:51

14-Ноя-18

Зарубежные фильмы 2016-2018 (Новинки зарубежного кино) ·%· 22 мили / Mile 22 (2018) BDRip 720p | iTunes Galfimbul 37912657683.53 GB 0 0 1542184848

11:40

14-Ноя-18

Зарубежные фильмы 2016-2018 (Новинки зарубежного кино) ·%· 22 мили / Mile 22 (2018) BDRip 1080p | iTunes Galfimbul 76295904637.11 GB 0 0 1542180014

10:20

14-Ноя-18

Зарубежные фильмы 2016-2018 (Новинки зарубежного кино) ·%· 22 мили / Mile 22 (2018) WEB-DLRip-AVC | iTunes Galfimbul 777995747742 MB 0 0 1540901475

15:11

30-Окт-18

Зарубежные фильмы 2016-2018 (Новинки зарубежного кино) ·%· 22 мили / Mile 22 (2018) WEB-DLRip от MegaPeer | iTunes Galfimbul 783373100747 MB 0 0 1540897879

14:11

30-Окт-18

Зарубежные фильмы 2016-2018 (Новинки зарубежного кино) ·%· 22 мили / Mile 22 (2018) WEB-DLRip | КПК | iTunes Galfimbul 375292566358 MB 0 0 1540887764

11:22

30-Окт-18

Зарубежные фильмы 2016-2018 (Новинки зарубежного кино) ·%· 22 мили / Mile 22 (2018) WEB-DL 1080p от TeamHD | iTunes Galfimbul 35076310863.27 GB 0 0 1540839753

22:02

29-Окт-18

Зарубежные фильмы 2016-2018 (Новинки зарубежного кино) ·%· 22 мили / Mile 22 (2018) TS-AVC | L2 Galfimbul 10885415011.01 GB 0 0 1539613254

17:20

15-Окт-18

Еще никто не оставлял запись к записи скачать торрент 22 мили Mile 22 . Будь первым!

!Обратная связь