Скачать через торрент Ограбление века Ограбление в Хаттон Гарден Фильм бесплатно в хорошем качестве torrent

Скачивайте на UnionPeer.org фильмы через торрент без регистрации. Новинки кино в хорошем качестве через торрент. На UnionPeer.org можно скачать через торрент фильмы 2014 и 2015 годов. Самые новые фильмы.

Скачать торрент Ограбление века Ограбление в Хаттон Гарден бесплатно через .torrent фильм мультфильм сериал

Статистика раздачи
Размер:  746 MB   |    Зарегистрирован:  26 дней   |    .torrent скачан:  73 раза   |   
Раздают:  1  
   
загрузка...
 
Автор Сообщение

Galfimbul

avatar Galfimbul


Ограбление века / The Hatton Garden Job

Страна: Великобритания
Производство: Fiction Films
Год выпуска: 2017
Жанр: боевик, триллер, криминал
Продолжительность: 01:32:43

Режиссер: Ронни Томпсон
Автор сценария: Рэй Богданович, Дин Лайнс, Ронни Томпсон

В ролях: Мэттью Гуд, Джоэли Ричардсон, Стивен Мойер, Клайв Расселл, Уоррен Браун, Дэвид Колдер, Ларри Ламб, Фил Дэниелс, Джек Дулан

Описание: Реальная история о самом масштабном ограблении в Великобритании. Налётчикам удалось вынести из надёжно защищённого банковского хранилища наличные и ценности на сумму в 200 миллионов фунтов. Воспользовавшись своим богатым жизненным опытом, преступники придумали отличный план, в котором рассчитали каждый шаг буквально по минутам. Это дерзкое ограбление наделало много шуму и сделало всех его участников «знаменитостями».



Перевод: Профессиональный (полное дублирование) | iTunes
Субтитры: нет
Качество: BDRip | исходник BDRemux 1080p
Формат: AVI
Видео кодек: XviD
Аудио кодек: МР3
Видео: 688x368 (1.85:1), 23.976 fps, XviD build 73 ~991 kbps avg
Аудио: 48.0 kHz, MPEG Layer 3, 2 ch, ~128 kbps

Дата премьеры (мир): 14 апреля 2017

<span style="color:Green;">
General
Complete name : The.Hatton.Garden.Job.2017.BDRip.745MB.MegaPeer.avi
Format : AVI
Format/Info : Audio Video Interleave
File size : 746 MiB
Duration : 1 h 32 min
Overall bit rate : 1 125 kb/s

Video
ID : 0
Format : MPEG-4 Visual
Format profile : Advanced Simple@L5
Format settings, BVOP : 1
Format settings, QPel : No
Format settings, GMC : No warppoints
Format settings, Matrix : Custom
Codec ID : XVID
Codec ID/Hint : XviD
Duration : 1 h 32 min
Bit rate : 991 kb/s
Width : 688 pixels
Height : 368 pixels
Display aspect ratio : 1.85:1
Frame rate : 23.976 (24000/1001) FPS
Color space : YUV
Chroma subsampling : 4:2:0
Bit depth : 8 bits
Scan type : Progressive
Compression mode : Lossy
Bits/(Pixel*Frame) : 0.163
Stream size : 657 MiB (88%)
Writing library : XviD 73

Audio
ID : 1
Format : MPEG Audio
Format version : Version 1
Format profile : Layer 3
Codec ID : 55
Codec ID/Hint : MP3
Duration : 1 h 32 min
Bit rate mode : Constant
Bit rate : 128 kb/s
Channel(s) : 2 channels
Sampling rate : 48.0 kHz
Compression mode : Lossy
Stream size : 84.9 MiB (11%)
Alignment : Aligned on interleaves
Interleave, duration : 167 ms (4.00 video frames)
Interleave, preload duration : 216 ms
Writing library : LAME3.99r
Encoding settings : -m s -V 4 -q 2 -lowpass 17 -b 128
Источник http://BlaTor.org

Трекер:  [ 14-Ноя-2018 08:30 ]

  

Скачать .torrent

Размер .torrent файла 15 KB


Размер: 746 MB
Хэш (hash) релиза: 957cea1327b09966af450fea72863157cd2f555c
Подписка на обновления:

Торренты, похожие на Ограбление века Ограбление в Хаттон Гарден скачать торрент

Форум Название Автор Размер S L Добавлен
Зарубежные фильмы 2016-2018 (Новинки зарубежного кино) ·%· Ограбление века / Ограбление в Хаттон Гарден / The Hatton Garden Job (2017) BDRip от MegaPeer | iTunes Galfimbul 15236648961.42 GB 0 0 1542248511

05:21

15-Ноя-18

Зарубежные фильмы 2016-2018 (Новинки зарубежного кино) ·%· Ограбление века / Ограбление в Хаттон Гарден / The Hatton Garden Job (2017) BDRip 1080p от селезень | iTunes Galfimbul 97447486319.08 GB 0 0 1542202898

16:41

14-Ноя-18

Зарубежные фильмы 2016-2018 (Новинки зарубежного кино) ·%· Ограбление века / Ограбление в Хаттон Гарден / The Hatton Garden Job (2017) BDRip-AVC от ExKinoRay | iTunes Galfimbul 781656654745 MB 0 0 1542199265

15:41

14-Ноя-18

Зарубежные фильмы 2016-2018 (Новинки зарубежного кино) ·%· Ограбление века / Ограбление в Хаттон Гарден / The Hatton Garden Job (2017) BDRip 720p от селезень | iTunes Galfimbul 35511457703.31 GB 0 0 1542157219

04:00

14-Ноя-18

Зарубежные фильмы 2016-2018 (Новинки зарубежного кино) ·%· Ограбление века / Ограбление в Хаттон Гарден / The Hatton Garden Job (2017) BDRip 1080p | iTunes Galfimbul 85345614897.95 GB 0 0 1542133250

21:20

13-Ноя-18

Зарубежные фильмы 2016-2018 (Новинки зарубежного кино) ·%· Ограбление века / Ограбление в Хаттон Гарден / The Hatton Garden Job (2017) BDRip-AVC от OlLanDGroup | iTunes Galfimbul 21770260812.03 GB 0 0 1542106823

14:00

13-Ноя-18

Еще никто не оставлял запись к записи скачать торрент Ограбление века Ограбление в Хаттон Гарден . Будь первым!

!Обратная связь