Скачать через торрент Укрась прощальное утро цветами обещания Sayonara no asa ni yakusoku no hana o kazaro Фильм бесплатно в хорошем качестве torrent

Скачивайте на UnionPeer.org фильмы через торрент без регистрации. Новинки кино в хорошем качестве через торрент. На UnionPeer.org можно скачать через торрент фильмы 2014 и 2015 годов. Самые новые фильмы.

Скачать торрент Укрась прощальное утро цветами обещания Sayonara no asa ni yakusoku no hana o kazaro бесплатно через .torrent фильм мультфильм сериал

Статистика раздачи
Размер:  32.93 GB   |    Зарегистрирован:  26 дней   |    .torrent скачан:  70 раз   |   
Раздают:  1  
   
загрузка...
 
Автор Сообщение

Galfimbul

avatar Galfimbul




Укрась прощальное утро цветами обещания

Maquia: When the Promised Flower Blooms / Sayonara no asa ni yakusoku no hana o kazaro
Страна: Япония
Производство: Bandai Visual, Cygames, Lantis, P.A. Works
Год выпуска: 2018
Жанр: аниме
, мультфильм, драма, мелодрама, приключения, фэнтези
Продолжительность: 01:54:00

Режиссер: Мари Окада
Автор сценария: Мари Окада

В ролях: Манака Ивами, Ирино Мию, Ёко Хикаса, Хирата Хироаки, Ёсимаса Хосоя, Юки Кадзи, Аи Каяно, Мисаки Куно, Рина Сато

Описание: Красавица Макия — из рода бессмертных. На протяжении веков многие армии пытались захватить её народ, чтобы завладеть секретом вечной жизни. И вот теперь, когда город разрушен, девушка прячется в лесу. Здесь она встречает потерявшего родителей маленького мальчика Эриала и начинает о нём заботиться.

Проходят годы, мальчик превращается в прекрасного юношу, и у беглецов возникают чувства друг к другу. Но Макия понимает, что Эриал — простой человек, а значит, он смертен...



Перевод: отсутствует | субтитры
Субтитры: японские | русские (отдельным файлом) / от Leonard Snow
Качество: BDRemux 1080p
Формат: МКV
Видео кодек: AVC
Аудио кодек: FLAC | TrueHD | АС3
Видео: 1920x1080 (16:9), 23.976 fps, MPEG-4 AVC ~35.5 Мbps avg
Аудио №1: 48.0 kHz, Free Lossless Audio Codec, 2/0 (L,R) ch, ~1355 kbps | JAP
Аудио №2: 48.0 kHz, TrueHD, 3/2 (L,C,R,l,r) + LFE ch, ~3341 kbps | JAP
Аудио №3: 48.0 kHz, AC3 Dolby Digital, 3/2 (L,C,R,l,r) + LFE ch, ~640 kbps | JAP
Формат субтитров: Presentation Graphic Streams (японские), русские (*SRT)

Дата премьеры (мир): 24 февраля 2018
Дата премьеры (РФ): 19 апреля 2018, «Capella Film»

<span style="color:Green;">
Unique ID : 24859498554275328016354020890948435710 (0x12B3C3E8869E925CD511A9B01E4C7EFE)
Complete name : [SAO] Sayonara no Asa ni Yakusoku no Hana o Kazarou [BDRemux].mkv
Format : Matroska
Format version : Version 4 / Version 2
File size : 32.9 GiB
Duration : 1 h 54 min
Overall bit rate mode : Variable
Overall bit rate : 41.1 Mb/s
Encoded date : UTC 2018-10-27 11:28:08
Writing application : mkvmerge v28.2.0 ('The Awakening') 64-bit
Writing library : libebml v1.3.6 + libmatroska v1.4.9

Video
ID : 1
Format : AVC
Format/Info : Advanced Video Codec
Format profile : High@L4.1
Format settings : CABAC / 2 Ref Frames
Format settings, CABAC : Yes
Format settings, RefFrames : 2 frames
Codec ID : V_MPEG4/ISO/AVC
Duration : 1 h 54 min
Bit rate mode : Variable
Bit rate : 35.5 Mb/s
Width : 1 920 pixels
Height : 1 080 pixels
Display aspect ratio : 16:9
Frame rate mode : Constant
Frame rate : 23.976 (24000/1001) FPS
Color space : YUV
Chroma subsampling : 4:2:0
Bit depth : 8 bits
Scan type : Progressive
Bits/(Pixel*Frame) : 0.714
Stream size : 28.5 GiB (86%)
Language : Japanese
Default : Yes
Forced : No

Audio #1
ID : 2
Format : FLAC
Format/Info : Free Lossless Audio Codec
Codec ID : A_FLAC
Duration : 1 h 54 min
Bit rate mode : Variable
Bit rate : 1 355 kb/s
Channel(s) : 2 channels
Channel positions : Front: L R
Sampling rate : 48.0 kHz
Frame rate : 11.719 FPS (4096 SPF)
Bit depth : 24 bits
Stream size : 1.09 GiB (3%)
Writing library : libFLAC 1.2.1 (UTC 2007-09-17)
Language : Japanese
Default : Yes
Forced : No

Audio #2
ID : 3
Format : TrueHD
Codec ID : A_TRUEHD
Duration : 1 h 54 min
Bit rate mode : Variable
Bit rate : 3 341 kb/s
Maximum bit rate : 5 148 kb/s
Channel(s) : 6 channels
Channel positions : Front: L C R, Side: L R, LFE
Sampling rate : 48.0 kHz
Frame rate : 1 200.000 FPS (40 SPF)
Compression mode : Lossless
Stream size : 2.68 GiB (8%)
Language : Japanese
Default : No
Forced : No

Audio #3
ID : 4
Format : AC-3
Format/Info : Audio Coding 3
Codec ID : A_AC3
Duration : 1 h 54 min
Bit rate mode : Constant
Bit rate : 640 kb/s
Channel(s) : 6 channels
Channel positions : Front: L C R, Side: L R, LFE
Sampling rate : 48.0 kHz
Frame rate : 31.250 FPS (1536 SPF)
Bit depth : 16 bits
Compression mode : Lossy
Stream size : 526 MiB (2%)
Language : Japanese
Service kind : Complete Main
Default : No
Forced : No

Text
ID : 5
Format : PGS
Muxing mode : zlib
Codec ID : S_HDMV/PGS
Codec ID/Info : Picture based subtitle format used on BDs/HD-DVDs
Duration : 1 h 53 min
Bit rate : 328 kb/s
Count of elements : 22128
Stream size : 267 MiB (1%)
Language : Japanese
Default : No
Forced : No

Menu
00:00:00.000 : :00:00:00.000
00:05:48.473 : :00:05:48.473
00:12:58.861 : :00:12:58.861
00:16:44.170 : :00:16:44.170
00:23:16.770 : :00:23:16.770
00:32:22.941 : :00:32:22.941
00:42:35.678 : :00:42:35.678
00:48:53.848 : :00:48:53.848
00:57:57.432 : :00:57:57.432
01:10:14.419 : :01:10:14.419
01:14:20.956 : :01:14:20.956
01:23:31.840 : :01:23:31.840
01:28:38.396 : :01:28:38.396
01:34:28.037 : :01:34:28.037
01:39:32.300 : :01:39:32.300
01:41:58.195 : :01:41:58.195
01:49:19.386 : :01:49:19.386
01:54:35.869 : :01:54:35.869
Источник http://BlaTor.org

Трекер:  [ 14-Ноя-2018 07:50 ]

  

Скачать .torrent

Размер .torrent файла 83 KB


Размер: 32.93 GB
Хэш (hash) релиза: 8524c9c5910bac42fee2ffbab7b12e9080dd78
Подписка на обновления:

Еще никто не оставлял запись к записи скачать торрент Укрась прощальное утро цветами обещания Sayonara no asa ni yakusoku no hana o kazaro . Будь первым!

!Обратная связь