Скачать через торрент Кин Kin Фильм бесплатно в хорошем качестве torrent

Скачивайте на UnionPeer.org фильмы через торрент без регистрации. Новинки кино в хорошем качестве через торрент. На UnionPeer.org можно скачать через торрент фильмы 2014 и 2015 годов. Самые новые фильмы.

Скачать торрент Кин Kin бесплатно через .torrent фильм мультфильм сериал

Статистика раздачи
Размер:  3.71 GB   |    Зарегистрирован:  27 дней   |    .torrent скачан:  108 раз   |   
Раздают:  1  
   
загрузка...
 
Автор Сообщение

Galfimbul

avatar Galfimbul


Информация о фильме
Название: Кин
Оригинальное название: Kin
Год выпуска: 2018
Жанр: Фантастика, боевик
Режиссер: Джонатан Бэйкер, Джош Бэйкер
В ролях: Майлс Труитт, Джек Рейнор, Дэннис Куэйд, Зои Кравиц, Джеймс Франко, Кэрри Кун, Йен Мэтьюз, Гэвин Фокс, Стефан Гарно, Лукас Пенар

О фильме: Обнаружив инопланетное оружие, об истинной мощи которого можно только догадываться, обычный школьник оказывается в эпицентре крупных проблем: охоту на него и его брата открывает армия пришельцев, спецслужбы и гангстеры.
Он не выбирал эту судьбу, но теперь только от него зависит — спасет загадочный артефакт наш мир или погубит…



Страна: США
Студия: 21 Laps Entertainment, Lionsgate, No Trace Camping
Продолжительность: 01:42:54
Перевод: Дублированный | iTunes

Файл
Качество: BDRip 720p
Видео: AVC, 1280x536 (2.35:1), 23.976 fps, 4 331 Kbps (0.263 bit/pixel)
Аудио #1: AC-3, 48.0 KHz, 6 ch, 384 Kbps, CBR (Russian)
Аудио #2: AC-3, 48.0 KHz, 6 ch, 448 Kbps, CBR (English)
Субтитры: English

Скриншоты:
x264 [info]: frame I:1102 Avg QP:13.02 size: 94414 PSNR Mean Y:50.05 U:54.31 V:54.39 Avg:50.85 Global:49.95
x264 [info]: frame P:29339 Avg QP:15.07 size: 40486 PSNR Mean Y:48.65 U:55.91 V:55.94 Avg:49.61 Global:48.02
x264 [info]: frame B:117592 Avg QP:17.27 size: 17409 PSNR Mean Y:46.81 U:52.53 V:52.63 Avg:47.77 Global:46.48
Полное имя : D:ФИЛЬМЫКин.2018 (Д.Куэйд, З.Кравиц).k.e.n & MegaPeer.mkv
Формат : Matroska
Версия формата : Version 2
Размер файла : 3,71 Гбайт
Продолжительность : 1 ч. 42 м.
Общий поток : 5161 Кбит/сек
Дата кодирования : UTC 2018-11-13 05:11:04
Программа кодирования : mkvmerge v5.3.0 ('I could have danced') built on Feb 9 2012 10:38:07
Библиотека кодирования : libebml v1.2.3 + libmatroska v1.3.0
Attachments : poster .jpg

Видео
Идентификатор : 1
Формат : AVC
Формат/Информация : Advanced Video Codec
Профиль формата : High@L4.1
Параметр CABAC формата : Да
Параметр ReFrames формата : 12 кадров
Идентификатор кодека : V_MPEG4/ISO/AVC
Продолжительность : 1 ч. 42 м.
Битрейт : 4331 Кбит/сек
Ширина : 1280 пикселей
Высота : 536 пикселей
Соотношение сторон : 2,40:1
Режим частоты кадров : Постоянный
Частота кадров : 23,976 (24000/1001) кадра/сек
Цветовое пространство : YUV
Субдискретизация насыщенности : 4:2:0
Битовая глубина : 8 бит
Тип развёртки : Прогрессивная
Бит/(Пиксели*Кадры) : 0.263
Размер потока : 3,04 Гбайт (82%)
Библиотека кодирования : x264 core 146 r2538 121396c
Настройки программы : cabac=1 / ref=12 / deblock=1:-3:-3 / analyse=0x3:0x133 / me=umh / subme=11 / psy=1 / psy_rd=1.00:0.10 / mixed_ref=1 / me_range=32 / chroma_me=1 / trellis=2 / 8x8dct=1 / cqm=0 / deadzone=21,11 / fast_pskip=0 / chroma_qp_offset=-3 / threads=12 / lookahead_threads=2 / sliced_threads=0 / nr=0 / decimate=0 / interlaced=0 / bluray_compat=0 / constrained_intra=0 / bframes=12 / b_pyramid=2 / b_adapt=2 / b_bias=0 / direct=3 / weightb=1 / open_gop=0 / weightp=2 / keyint=240 / keyint_min=23 / scenecut=40 / intra_refresh=0 / rc=2pass / mbtree=0 / bitrate=4331 / ratetol=1.0 / qcomp=0.60 / qpmin=0 / qpmax=69 / qpstep=4 / cplxblur=20.0 / qblur=0.5 / ip_ratio=1.40 / pb_ratio=1.30 / aq=3:0.90
Язык : English
Default : Да
Forced : Нет

Аудио #1
Идентификатор : 2
Формат : AC-3
Формат/Информация : Audio Coding 3
Расширение режима : CM (complete main)
Параметр Endianness формата : Big
Идентификатор кодека : A_AC3
Продолжительность : 1 ч. 42 м.
Вид битрейта : Постоянный
Битрейт : 384 Кбит/сек
Каналы : 6 каналов
Расположение каналов : Front: L C R, Side: L R, LFE
Частота : 48,0 КГц
Частота кадров : 31,250 кадров/сек (1536 spf)
Битовая глубина : 16 бит
Метод сжатия : С потерями
Размер потока : 283 Мбайт (7%)
Заголовок : Дублированный
Язык : Russian
Default : Да
Forced : Да

Аудио #2
Идентификатор : 3
Формат : AC-3
Формат/Информация : Audio Coding 3
Расширение режима : CM (complete main)
Параметр Endianness формата : Big
Идентификатор кодека : A_AC3
Продолжительность : 1 ч. 42 м.
Вид битрейта : Постоянный
Битрейт : 448 Кбит/сек
Каналы : 6 каналов
Расположение каналов : Front: L C R, Side: L R, LFE
Частота : 48,0 КГц
Частота кадров : 31,250 кадров/сек (1536 spf)
Битовая глубина : 16 бит
Метод сжатия : С потерями
Размер потока : 330 Мбайт (9%)
Заголовок : Оригинал
Язык : English
Default : Нет
Forced : Нет

Текст #1
Идентификатор : 4
Формат : UTF-8
Идентификатор кодека : S_TEXT/UTF8
Идентификатор кодека/Информация : UTF-8 Plain Text
Язык : English
Default : Нет
Forced : Нет

Текст #2
Идентификатор : 5
Формат : UTF-8
Идентификатор кодека : S_TEXT/UTF8
Идентификатор кодека/Информация : UTF-8 Plain Text
Заголовок : SDH
Язык : English
Default : Нет
Forced : Нет

Меню
00:00:00.000 : en:Chapter 01
00:07:23.734 : en:Chapter 02
00:12:34.712 : en:Chapter 03
00:20:44.451 : en:Chapter 04
00:27:27.812 : en:Chapter 05
00:31:57.123 : en:Chapter 06
00:36:39.780 : en:Chapter 07
00:41:57.848 : en:Chapter 08
00:50:09.548 : en:Chapter 09
00:56:57.497 : en:Chapter 10
01:05:01.355 : en:Chapter 11
01:08:01.368 : en:Chapter 12
01:13:58.600 : en:Chapter 13
01:17:52.209 : en:Chapter 14
01:25:58.736 : en:Chapter 15
01:34:28.954 : en:Chapter 16
Источник http://BlaTor.org

Трекер:  [ 13-Ноя-2018 21:30 ]

  

Скачать .torrent

Размер .torrent файла 19 KB


Размер: 3.71 GB
Хэш (hash) релиза: bf13de60d1f7dfbc41bf85494368c2e9c8e5e5ce
Подписка на обновления:

Торренты, похожие на Кин Kin скачать торрент

Форум Название Автор Размер S L Добавлен
Зарубежные фильмы 2016-2018 (Новинки зарубежного кино) ·%· Кин / Kin (2018) HDRip-AVC | iTunes Galfimbul 772422385737 MB 0 0 1542982842

17:20

23-Ноя-18

Зарубежные фильмы 2016-2018 (Новинки зарубежного кино) ·%· Кин / Kin (2018) UHD BDRemux 2160p | 4K | HDR | iTunes Galfimbul 5498945373351.21 GB 0 0 1542953422

09:10

23-Ноя-18

Зарубежные фильмы 2016-2018 (Новинки зарубежного кино) ·%· Кин / Kin (2018) BDRip от ExKinoRay | iTunes Galfimbul 15194452781.42 GB 0 0 1542249672

05:41

15-Ноя-18

Зарубежные фильмы 2016-2018 (Новинки зарубежного кино) ·%· Кин / Kin (2018) BDRip-AVC от HELLYWOOD | iTunes Galfimbul 22839228322.13 GB 0 0 1542101475

12:31

13-Ноя-18

Зарубежные фильмы 2016-2018 (Новинки зарубежного кино) ·%· Кин / Kin (2018) BDRip 720p от селезень | iTunes Galfimbul 53162683914.95 GB 0 0 1542028843

16:20

12-Ноя-18

Зарубежные фильмы 2016-2018 (Новинки зарубежного кино) ·%· Кин / Kin (2018) BDRip 1080p от селезень | iTunes Galfimbul 1110229404910.34 GB 0 0 1542010231

11:10

12-Ноя-18

Зарубежные фильмы 2016-2018 (Новинки зарубежного кино) ·%· Кин / Kin (2018) BDRemux 1080p | iTunes Galfimbul 2272704168421.17 GB 0 0 1542006060

10:01

12-Ноя-18

Зарубежные фильмы 2016-2018 (Новинки зарубежного кино) ·%· Кин / Kin (2018) HDRip от MegaPeer | iTunes Galfimbul 780766394745 MB 0 0 1541970665

00:11

12-Ноя-18

Зарубежные фильмы 2016-2018 (Новинки зарубежного кино) ·%· Кин / Kin (2018) HDRip от Dalemake | iTunes Galfimbul 15656038401.46 GB 0 0 1541896862

03:41

11-Ноя-18

Зарубежные фильмы 2016-2018 (Новинки зарубежного кино) ·%· Кин / Kin (2018) BDRip 1080p | iTunes Galfimbul 85107245347.93 GB 0 0 1541857813

16:50

10-Ноя-18

Зарубежные фильмы 2016-2018 (Новинки зарубежного кино) ·%· Кин / Kin (2018) BDRip 720p | iTunes Galfimbul 49888275214.65 GB 0 0 1541850018

14:40

10-Ноя-18

Зарубежные фильмы 2016-2018 (Новинки зарубежного кино) ·%· Кин / Kin (2018) WEB-DLRip-AVC от OlLanDGroup | iTunes Galfimbul 20067186891.87 GB 0 0 1541816480

05:21

10-Ноя-18

Зарубежные фильмы 2016-2018 (Новинки зарубежного кино) ·%· Кин / Kin (2018) WEB-DLRip от MegaPeer | iTunes Galfimbul 15690362881.46 GB 0 0 1541760676

13:51

9-Ноя-18

Азиатские фильмы ·%· Так держать, якудза / Carry on Yakuza / Hak do fuk sing (Филлип Чан Ян-Кин / Philip Chan Yan Kin) [1989, Гонконг, комедия, криминал, DVDRip] VO (Хоррор Мэйкер) Galfimbul 14743592961.37 GB 0 0 1533049285

18:01

31-Июл-18

Азиатские фильмы ·· Когда гаснет свет / As the Light Goes Out / Jiu huo ying xiong / Te Zhong Jiu Yuan Ying Xiong (Чи-Кин Квок / Chi-kin Kwok) [2014, Гонконг, боевик, драма, BDRip 720p] VO (Вадим Белов) + Original (Chi) + Subs (Rus, Eng) Galfimbul 87623615768.16 GB 0 0 1412778654

17:30

8-Окт-14

Азиатские фильмы ·· Когда гаснет свет / Jiu huo ying xiong (Чи-Кин Квок / Chi-kin Kwok) [2014, Китай, Гонконг, боевик, драма, HDRip] VO [В. Белов] Galfimbul 15721103361.46 GB 0 0 1410765219

10:13

15-Сен-14

Азиатские фильмы ·· Когда гаснет свет / Jiu huo ying xiong (Чи-Кин Квок / Chi-kin Kwok) [2014, Китай, Гонконг, боевик, драма, HDRip] VO [В. Белов] Galfimbul 785201152749 MB 0 0 1410765184

10:13

15-Сен-14

Еще никто не оставлял запись к записи скачать торрент Кин Kin . Будь первым!

!Обратная связь